<?xml version="1.0" standalone="no"?>
<!DOCTYPE svg PUBLIC "-//W3C//DTD SVG 1.1//EN" "http://www.w3.org/Graphics/SVG/1.1/DTD/svg11.dtd" >
<svg xmlns="http://www.w3.org/2000/svg" xmlns:xlink="http://www.w3.org/1999/xlink" version="1.1">
<metadata></metadata>
<defs>
<font id="anakotmaimedium" horiz-adv-x="626" >
<font-face units-per-em="2048" ascent="1638" descent="-410" />
<missing-glyph horiz-adv-x="573" />
<glyph unicode="&#xfb01;" horiz-adv-x="1480" d="M61 860v205h175v59q0 194 79.5 282.5t255.5 88.5q142 0 275 -49l-58 -193q-88 33 -155 33q-65 0 -93 -33.5t-28 -109.5v-78h279v-215h-279v-850h-276v860h-175zM1004 1321q0 66 46.5 110t116.5 44t117 -44t47 -110q0 -67 -46.5 -111.5t-117.5 -44.5t-117 44.5t-46 111.5z M1030 0v1065h277v-1065h-277z" />
<glyph unicode="&#xfb02;" horiz-adv-x="1544" d="M61 860v205h175v59q0 194 79.5 282.5t255.5 88.5q142 0 275 -49l-58 -193q-88 33 -155 33q-65 0 -93 -33.5t-28 -109.5v-78h279v-215h-279v-850h-276v860h-175zM1038 276v1178h277v-1153q0 -55 20.5 -74.5t59.5 -19.5q31 0 67 6l17 -203q-73 -22 -172 -22 q-154 0 -211.5 71.5t-57.5 216.5z" />
<glyph horiz-adv-x="0" />
<glyph horiz-adv-x="682" />
<glyph unicode="&#xd;" horiz-adv-x="573" />
<glyph unicode=" "  horiz-adv-x="573" />
<glyph unicode="&#x09;" horiz-adv-x="573" />
<glyph unicode="&#xa0;" horiz-adv-x="573" />
<glyph unicode="!" horiz-adv-x="712" d="M184 1454h344l-61 -942h-221zM190 147q0 71 47 117.5t117 46.5t117 -46.5t47 -117.5q0 -70 -46.5 -116.5t-117.5 -46.5t-117.5 46.5t-46.5 116.5z" />
<glyph unicode="&#x22;" horiz-adv-x="868" d="M115 1454h250l-43 -649h-164zM504 1454h250l-43 -649h-164z" />
<glyph unicode="#" horiz-adv-x="1619" d="M68 367l43 211h325l64 301h-324l45 211h322l78 364h231l-78 -364h219l78 364h232l-78 -364h327l-45 -211h-325l-64 -301h324l-43 -211h-326l-78 -367h-231l78 367h-219l-78 -367h-232l78 367h-323zM668 578h219l63 301h-219z" />
<glyph unicode="$" horiz-adv-x="1157" d="M57 129l76 229q211 -111 389 -122v382l-22 7q-52 13 -85 22.5t-80.5 28t-78.5 38t-65.5 50.5t-54 68t-33 89.5t-13.5 114.5q0 178 113.5 286t318.5 128v160h144v-158q205 -9 368 -92l-84 -217q-138 69 -284 78v-355l10 -4q65 -19 110.5 -34t93 -35.5t79 -42t60.5 -51.5 t45.5 -65.5t26 -81.5t9.5 -103q0 -191 -114.5 -307t-319.5 -138v-197h-144v195q-126 6 -250.5 41.5t-214.5 85.5zM391 1063q0 -52 32 -86.5t99 -61.5v293q-131 -30 -131 -145zM666 246q133 40 133 160q0 65 -32 102t-101 65v-327z" />
<glyph unicode="%" horiz-adv-x="1855" d="M82 1085q0 179 95.5 284.5t258.5 105.5t259 -105.5t96 -284.5q0 -180 -96 -285.5t-259 -105.5t-258.5 105.5t-95.5 285.5zM311 1085q0 -110 32.5 -169.5t92.5 -59.5t92.5 59.5t32.5 169.5q0 109 -32.5 168.5t-92.5 59.5t-92.5 -59.5t-32.5 -168.5zM395 0l860 1454h203 l-860 -1454h-203zM1065 369q0 179 95.5 284t258.5 105t259 -105.5t96 -283.5q0 -180 -96 -286t-259 -106t-258.5 106t-95.5 286zM1294 369q0 -110 32.5 -170t92.5 -60t92.5 60t32.5 170q0 109 -32.5 168t-92.5 59t-92.5 -59t-32.5 -168z" />
<glyph unicode="&#x26;" horiz-adv-x="1462" d="M61 389q0 134 72.5 233.5t243.5 198.5q-115 171 -115 328q0 148 110 237t292 89q170 0 270 -83.5t100 -224.5q0 -123 -63 -213.5t-221 -189.5q15 -15 43 -47l198 -217q45 108 62 241h280q-34 -258 -155 -446l264 -289v-6h-326l-108 117q-183 -135 -435 -135 q-233 0 -372.5 110.5t-139.5 296.5zM367 410q0 -80 64 -135.5t157 -55.5q146 0 252 80l-291 315q-3 4 -10.5 11.5t-10.5 11.5q-91 -58 -126 -108t-35 -119zM535 1128q0 -77 69 -184q86 53 126 102.5t40 104.5q0 51 -30 78.5t-83 27.5q-58 0 -90 -33.5t-32 -95.5z" />
<glyph unicode="'" horiz-adv-x="479" d="M115 1454h250l-43 -649h-164z" />
<glyph unicode="(" horiz-adv-x="884" d="M133 604q0 332 152.5 603t451.5 472l127 -155q-203 -154 -313.5 -393t-110.5 -527q0 -286 110.5 -524.5t313.5 -394.5l-127 -156q-299 202 -451.5 473.5t-152.5 601.5z" />
<glyph unicode=")" horiz-adv-x="884" d="M20 -315q203 156 313.5 394.5t110.5 524.5q0 288 -110.5 527t-313.5 393l127 155q299 -201 452 -472.5t153 -602.5q0 -330 -153 -601t-452 -474z" />
<glyph unicode="*" horiz-adv-x="835" d="M109 1153l161 86l-161 86l81 141l156 -100l-12 184h168l-13 -184l156 100l82 -141l-162 -86l162 -86l-82 -141l-156 100l13 -184h-168l12 184l-156 -100z" />
<glyph unicode="+" horiz-adv-x="1310" d="M102 428v209h430v428h248v-428h428v-209h-428v-428h-248v428h-430z" />
<glyph unicode="," d="M25 -367l180 650h282l-282 -650h-180z" />
<glyph unicode="-" horiz-adv-x="966" d="M123 442v226h721v-226h-721z" />
<glyph unicode="." d="M150 154q0 70 46 116.5t117 46.5t117.5 -46.5t46.5 -116.5t-46.5 -117t-117.5 -47q-70 0 -116.5 46.5t-46.5 117.5z" />
<glyph unicode="/" horiz-adv-x="1085" d="M20 -328l697 1844h246l-697 -1844h-246z" />
<glyph unicode="0" horiz-adv-x="1411" d="M82 727q0 347 167 547.5t456 200.5q290 0 457 -200.5t167 -547.5t-167 -547t-457 -200q-289 0 -456 200t-167 547zM389 727q0 -238 85 -376t231 -138q148 0 232.5 137.5t84.5 376.5t-84.5 376.5t-232.5 137.5q-146 0 -231 -138t-85 -376z" />
<glyph unicode="1" horiz-adv-x="915" d="M41 1167l428 287h242v-1454h-303v1141l-236 -160z" />
<glyph unicode="2" horiz-adv-x="1245" d="M88 1333q254 142 494 142q243 0 377.5 -123.5t134.5 -345.5q0 -128 -54 -231t-184 -222l-354 -322h631v-229h-1041v229l483 443q115 104 160 177.5t45 156.5q0 109 -63 171t-172 62q-146 0 -350 -123z" />
<glyph unicode="3" horiz-adv-x="1230" d="M59 111l97 219q207 -117 383 -117q118 0 189 57t71 152q0 103 -87 156t-257 53h-119v205h113q151 0 230 54.5t79 158.5q0 92 -59 142t-167 50q-160 0 -342 -121l-108 213q251 142 493 142q226 0 361 -109.5t135 -292.5q0 -115 -56.5 -198.5t-164.5 -131.5 q122 -32 192 -123.5t70 -222.5q0 -189 -147.5 -303t-393.5 -114q-250 0 -512 131z" />
<glyph unicode="4" horiz-adv-x="1208" d="M33 289v192l639 973h307v-946h172v-219h-172v-289h-293v289h-653zM305 508h381v594z" />
<glyph unicode="5" horiz-adv-x="1230" d="M68 119l96 215q222 -121 375 -121q133 0 211.5 71t78.5 191q0 113 -70 180.5t-188 67.5q-67 0 -126 -25.5t-91 -68.5l-190 47v778h856v-229h-576v-324q91 45 220 45q218 0 345.5 -127t127.5 -344q0 -227 -150 -361t-405 -134q-261 0 -514 139z" />
<glyph unicode="6" horiz-adv-x="1230" d="M78 690q0 389 170 587t504 198q182 0 348 -68l-80 -223q-137 57 -266 57q-174 0 -269.5 -110t-105.5 -326q120 137 313 137q220 0 348.5 -126t128.5 -341q0 -227 -144 -361t-390 -134q-275 0 -416 180t-141 530zM381 532q27 -323 260 -323q110 0 176 69.5t66 186.5 t-66.5 185.5t-181.5 68.5q-94 0 -159.5 -48t-94.5 -139z" />
<glyph unicode="7" horiz-adv-x="1017" d="M20 1221v233h977v-211l-532 -1243h-311l542 1221h-676z" />
<glyph unicode="8" horiz-adv-x="1230" d="M57 385q0 117 67.5 206.5t188.5 137.5q-215 126 -215 336q0 183 144 296.5t376 113.5q218 0 353 -103t135 -270q0 -207 -215 -309q150 -64 216.5 -153t66.5 -220q0 -205 -147.5 -322.5t-405.5 -117.5q-254 0 -409 111t-155 294zM365 438q0 -109 70 -171t192 -62 q111 0 175 53t64 145q0 78 -53 120t-213 87q-54 16 -129 43q-106 -80 -106 -215zM410 1081q0 -79 64 -126t247 -103q104 90 104 211q0 87 -56 136.5t-155 49.5q-94 0 -149 -45.5t-55 -122.5z" />
<glyph unicode="9" horiz-adv-x="1230" d="M55 981q0 226 140 360t376 134q576 0 576 -727q0 -387 -151.5 -577.5t-460.5 -190.5q-197 0 -369 67l72 223q137 -57 266 -57q166 0 249.5 106.5t92.5 329.5q-120 -137 -314 -137q-220 0 -348.5 126t-128.5 343zM342 989q0 -117 66.5 -185.5t181.5 -68.5q94 0 159.5 48 t94.5 139q-27 323 -260 323q-110 0 -176 -69.5t-66 -186.5z" />
<glyph unicode=":" d="M150 154q0 70 46 116.5t117 46.5t117.5 -46.5t46.5 -116.5t-46.5 -117t-117.5 -47q-70 0 -116.5 46.5t-46.5 117.5zM150 860q0 71 46.5 117.5t116.5 46.5q71 0 117.5 -47t46.5 -117t-46.5 -117t-117.5 -47q-70 0 -116.5 46.5t-46.5 117.5z" />
<glyph unicode=";" d="M-16 -367l180 650h282l-282 -650h-180zM150 860q0 71 46.5 117.5t116.5 46.5q71 0 117.5 -47t46.5 -117t-46.5 -117t-117.5 -47q-70 0 -116.5 46.5t-46.5 117.5z" />
<glyph unicode="&#x3c;" horiz-adv-x="1310" d="M82 432v209l1106 410v-222l-840 -292l840 -293v-221z" />
<glyph unicode="=" horiz-adv-x="1310" d="M102 217v209h1106v-209h-1106zM102 639v209h1106v-209h-1106z" />
<glyph unicode="&#x3e;" horiz-adv-x="1310" d="M123 23v221l840 293l-840 292v222l1106 -410v-209z" />
<glyph unicode="?" horiz-adv-x="905" d="M39 1378q198 97 385 97q206 0 309 -87t103 -237q0 -94 -39.5 -160.5t-130.5 -150.5q-94 -87 -117 -141.5t-23 -166.5v-61h-247v61q0 153 31.5 227.5t140.5 168.5q60 51 89 91.5t29 88.5q0 67 -47.5 107t-128.5 40q-122 0 -272 -79zM238 154q0 70 46 116.5t117 46.5 t117.5 -46.5t46.5 -116.5t-46.5 -117t-117.5 -47q-70 0 -116.5 46.5t-46.5 117.5z" />
<glyph unicode="@" horiz-adv-x="1855" d="M82 465q0 183 61 337.5t176 269t293 179t400 64.5q349 0 555.5 -181t206.5 -479q0 -152 -50 -273t-153.5 -195t-245.5 -74q-177 0 -246 114q-110 -116 -295 -116q-132 0 -200 60.5t-68 162.5q0 288 547 284l2 11q5 19 1 41.5t-13.5 42t-41.5 32.5t-83 13q-118 0 -269 -74 l-59 164q61 34 167 62t212 28q171 0 251 -76.5t66 -224.5l-20 -213q-2 -37 -1.5 -70t21 -56.5t62.5 -23.5q69 0 120.5 54t76 136.5t24.5 178.5q0 230 -160 368t-418 138q-173 0 -310.5 -51t-226.5 -141.5t-136 -214.5t-47 -271q0 -277 165 -422t482 -145q86 0 174.5 15.5 t142 31.5t139.5 45l56 -162q-234 -102 -531 -102q-387 0 -607 189t-220 544zM756 356q0 -31 21 -50t63 -19q49 0 103 19.5t95 60.5q-2 18 2 59l7 51q-158 -9 -224.5 -37.5t-66.5 -83.5z" />
<glyph unicode="A" horiz-adv-x="1519" d="M41 0l557 1454h324l557 -1454h-324l-102 283h-598l-103 -283h-311zM535 504h438l-219 612z" />
<glyph unicode="B" horiz-adv-x="1468" d="M184 0v1454h643q218 0 337.5 -96t119.5 -271q0 -232 -223 -323q149 -29 227 -122.5t78 -242.5q0 -195 -133 -297t-385 -102h-664zM487 229h349q110 0 166.5 51t56.5 150q0 96 -56.5 145.5t-166.5 49.5h-349v-396zM487 854h277q105 0 159 47t54 139q0 185 -213 185h-277 v-371z" />
<glyph unicode="C" horiz-adv-x="1302" d="M82 727q0 347 197 547.5t540 200.5q137 0 261 -32t202 -89l-100 -211q-72 46 -163.5 72t-180.5 26q-209 0 -329 -137t-120 -375q0 -239 121 -377.5t330 -138.5q168 0 342 100l100 -209q-83 -58 -205.5 -91t-255.5 -33q-344 0 -541.5 200t-197.5 547z" />
<glyph unicode="D" horiz-adv-x="1550" d="M184 0v1454h498q383 0 584.5 -186t201.5 -541t-201.5 -541t-584.5 -186h-498zM483 229h199q234 0 356.5 127.5t122.5 370.5t-122.5 370.5t-356.5 127.5h-199v-996z" />
<glyph unicode="E" horiz-adv-x="1284" d="M184 0v1454h977v-229h-674v-385h633v-226h-633v-385h695v-229h-998z" />
<glyph unicode="F" horiz-adv-x="1181" d="M184 0v1454h936v-229h-633v-414h572v-225h-572v-586h-303z" />
<glyph unicode="G" horiz-adv-x="1572" d="M82 721q0 349 207 551.5t563 202.5q166 0 313.5 -46t253.5 -131l-129 -202q-190 145 -426 145q-234 0 -354.5 -132t-120.5 -388q0 -232 118.5 -370t317.5 -138q246 0 373 168v209h-401v221h663v-811h-254v154q-136 -174 -424 -174q-315 0 -507.5 204t-192.5 537z" />
<glyph unicode="H" horiz-adv-x="1609" d="M184 0v1454h303v-598h635v598h303v-1454h-303v627h-635v-627h-303z" />
<glyph unicode="I" horiz-adv-x="712" d="M205 0v1454h303v-1454h-303z" />
<glyph unicode="J" horiz-adv-x="978" d="M18 61l78 218q130 -62 238 -62q95 0 136.5 47t41.5 156v1034h303v-1003q0 -246 -100.5 -356.5t-323.5 -110.5q-199 0 -373 77z" />
<glyph unicode="K" horiz-adv-x="1529" d="M184 0v1454h299v-659l611 659h356l-541 -571l600 -883h-368l-434 668l-224 -238v-430h-299z" />
<glyph unicode="L" horiz-adv-x="1181" d="M184 0v1454h303v-1225h654v-229h-957z" />
<glyph unicode="M" horiz-adv-x="1816" d="M184 0v1454h279l446 -862l445 862h278v-1454h-291v903l-331 -637h-203l-332 637v-903h-291z" />
<glyph unicode="N" horiz-adv-x="1609" d="M184 0v1454h279l682 -962v962h280v-1454h-258l-702 997v-997h-281z" />
<glyph unicode="O" horiz-adv-x="1654" d="M82 727q0 337 204.5 542.5t540.5 205.5q222 0 391.5 -93t262 -263t92.5 -392t-92.5 -392t-262 -262.5t-391.5 -92.5q-167 0 -306 54t-235.5 151t-150 236t-53.5 306zM389 727q0 -233 119.5 -373.5t318.5 -140.5t319 140.5t120 373.5t-120 373.5t-319 140.5t-318.5 -140.5 t-119.5 -373.5z" />
<glyph unicode="P" horiz-adv-x="1284" d="M184 0v1454h504q261 0 408 -126.5t147 -350.5t-147 -350.5t-408 -126.5h-201v-500h-303zM487 729h201q133 0 207 65.5t74 182.5t-74 182.5t-207 65.5h-201v-496z" />
<glyph unicode="Q" horiz-adv-x="1636" d="M82 727q0 337 204.5 542.5t540.5 205.5q222 0 391.5 -93t262 -263t92.5 -392q0 -241 -108 -418.5t-300 -261.5l17 -22q82 -106 123 -134t116 -28h37v-211h-61q-119 0 -190.5 17.5t-126.5 60t-117 129.5l-89 123q-16 -2 -47 -2q-167 0 -306 54t-235.5 151t-150 236 t-53.5 306zM389 727q0 -233 119.5 -373.5t318.5 -140.5t319 140.5t120 373.5t-120 373.5t-319 140.5t-318.5 -140.5t-119.5 -373.5z" />
<glyph unicode="R" horiz-adv-x="1406" d="M184 0v1454h561q246 0 382.5 -114t136.5 -320q0 -152 -86 -256.5t-240 -138.5q32 -23 80 -93l102 -151q73 -109 109 -135.5t110 -26.5h37v-219h-61q-121 0 -189 16.5t-117.5 59t-107.5 131.5l-182 280q-32 51 -59.5 68.5t-73.5 17.5h-99v-573h-303zM487 786h258 q116 0 180 58t64 162t-64 161.5t-180 57.5h-258v-439z" />
<glyph unicode="S" horiz-adv-x="1255" d="M57 109l84 229q260 -125 469 -125q141 0 211 51t70 142q0 25 -4.5 45.5t-18 38t-26 30.5t-40 26t-47.5 21t-61.5 19.5t-69.5 18.5t-83 20q-45 11 -70 17t-68.5 19.5t-69 24.5t-62.5 30.5t-59 39.5t-47 49.5t-38.5 62.5t-23 76t-9.5 92q0 211 150.5 325t419.5 114 q258 0 462 -95l-92 -217q-172 78 -350 78q-82 0 -142 -15t-100.5 -54.5t-40.5 -102.5q0 -80 77 -123q54 -31 228 -77h1h1l1 -1h1h1h1l1 -1h1h1h1l1 -1h1h1h1l1 -1h1l1 -1h1h1h2l1 -1h1h1h1l1 -1h1q104 -27 169.5 -49.5t127.5 -55.5t95 -72.5t53 -97t20 -134.5 q0 -228 -151 -350.5t-422 -122.5q-153 0 -306 36.5t-262 92.5z" />
<glyph unicode="T" horiz-adv-x="1286" d="M41 1225v229h1204v-229h-450v-1225h-303v1225h-451z" />
<glyph unicode="U" horiz-adv-x="1581" d="M174 549v905h303v-934q0 -143 83 -225t228 -82q146 0 231 82.5t85 224.5v934h303v-905q0 -264 -166 -416.5t-453 -152.5q-286 0 -450 152.5t-164 416.5z" />
<glyph unicode="V" horiz-adv-x="1445" d="M20 1454h312l377 -1114l393 1114h323l-557 -1454h-311z" />
<glyph unicode="W" horiz-adv-x="2117" d="M31 1454h311l295 -1061l270 1061h303l275 -1061l291 1061h311l-406 -1454h-342l-280 1042l-279 -1042h-342z" />
<glyph unicode="X" horiz-adv-x="1488" d="M31 0l538 741l-518 713h352l342 -498l340 498h353l-518 -713l538 -741h-352l-361 526l-362 -526h-352z" />
<glyph unicode="Y" horiz-adv-x="1404" d="M31 1454h323l348 -616l349 616h323l-524 -870v-584h-295v584z" />
<glyph unicode="Z" horiz-adv-x="1388" d="M102 0v197l770 1022h-708v235h1085v-217l-760 -1001h801v-236h-1188z" />
<glyph unicode="[" horiz-adv-x="772" d="M184 -473v2132h547v-189h-289v-1755h289v-188h-547z" />
<glyph unicode="\" horiz-adv-x="1085" d="M82 1516h246l696 -1844h-246z" />
<glyph unicode="]" horiz-adv-x="772" d="M41 -285h289v1755h-289v189h547v-2132h-547v188z" />
<glyph unicode="^" horiz-adv-x="1218" d="M41 342l451 1112h235l451 -1112h-236l-332 852l-334 -852h-235z" />
<glyph unicode="_" horiz-adv-x="1224" d="M-4 -152h1233v-172h-1233v172z" />
<glyph unicode="`" horiz-adv-x="1228" d="M301 1567h350l226 -328h-232z" />
<glyph unicode="a" horiz-adv-x="1171" d="M61 299q-1 173 175 261q174 88 506 87h8v55q0 91 -47.5 131.5t-153.5 40.5q-156 0 -346 -100l-84 199q83 49 216.5 80.5t258.5 31.5q215 0 320.5 -93t105.5 -283v-439q0 -63 61 -63q37 0 52 6l18 -201q-76 -26 -139 -26q-196 0 -246 143q-62 -70 -152 -107.5t-196 -37.5 q-165 0 -261 84.5t-96 230.5zM338 309q0 -119 143 -119q75 0 146.5 28.5t122.5 78.5v174q-172 -8 -257.5 -24.5t-120 -47.5t-34.5 -90z" />
<glyph unicode="b" horiz-adv-x="1308" d="M164 0v1454h276v-440q112 71 273 71q243 0 383.5 -142t140.5 -388q0 -256 -138.5 -415.5t-361.5 -159.5q-188 0 -303 106v-86h-270zM440 248q86 -64 209 -64q139 0 223 99.5t84 263.5q0 157 -79 242t-224 85q-124 0 -213 -67v-559z" />
<glyph unicode="c" horiz-adv-x="1071" d="M61 532q0 253 152.5 403t409.5 150q111 0 211.5 -30.5t175.5 -87.5l-107 -181q-127 88 -266 88q-137 0 -216 -92t-79 -250q0 -157 82.5 -249.5t220.5 -92.5t266 89l107 -179q-71 -58 -172 -89t-215 -31q-260 0 -415 150t-155 402z" />
<glyph unicode="d" horiz-adv-x="1296" d="M72 520q0 255 156.5 410t414.5 155q119 0 223 -36v405h277v-1454h-271v100q-114 -120 -309 -120q-218 0 -354.5 150.5t-136.5 389.5zM348 532q0 -158 87 -253t233 -95q118 0 198 64v586q-84 40 -192 40q-149 0 -237.5 -92.5t-88.5 -249.5z" />
<glyph unicode="e" horiz-adv-x="1181" d="M61 532q0 249 152.5 401t404.5 152q235 0 370.5 -138.5t135.5 -379.5q0 -37 -6 -110h-774q15 -125 101 -198t219 -73q168 0 297 111l120 -174q-169 -143 -430 -143q-270 0 -430 149.5t-160 402.5zM344 641h520q-2 111 -68.5 175.5t-181.5 64.5q-109 0 -180 -64t-90 -176z " />
<glyph unicode="f" horiz-adv-x="854" d="M61 860v205h175v59q0 194 79.5 282.5t255.5 88.5q142 0 275 -49l-58 -193q-88 33 -155 33q-65 0 -93 -33.5t-28 -109.5v-78h279v-215h-279v-850h-276v860h-175z" />
<glyph unicode="g" horiz-adv-x="1296" d="M72 530q0 246 149 400.5t385 154.5q167 0 273 -86v66h264v-1004q0 -249 -129 -370t-393 -121q-247 0 -449 100l78 199q174 -88 348 -88q132 0 200 57.5t68 169.5v51q-101 -59 -250 -59q-247 0 -395.5 145t-148.5 385zM348 532q0 -146 82 -233.5t219 -87.5q125 0 217 70 v540q-82 53 -190 53q-151 0 -239.5 -92.5t-88.5 -249.5z" />
<glyph unicode="h" horiz-adv-x="1323" d="M164 0v1454h276v-532q111 163 340 163q198 0 299 -106t101 -313v-666h-277v641q0 115 -48 171t-146 56q-83 0 -156 -38t-113 -101v-729h-276z" />
<glyph unicode="i" d="M150 1321q0 66 46.5 110t116.5 44t117 -44t47 -110q0 -67 -46.5 -111.5t-117.5 -44.5t-117 44.5t-46 111.5zM176 0v1065h277v-1065h-277z" />
<glyph unicode="j" horiz-adv-x="665" d="M-129 -381l51 197q90 -33 166 -33q69 0 98 33.5t29 113.5v1135h277v-1131q0 -192 -83 -278t-268 -86q-125 0 -270 49zM188 1321q0 66 47 110t117 44t117 -44t47 -110q0 -67 -46.5 -111.5t-117.5 -44.5t-117.5 44.5t-46.5 111.5z" />
<glyph unicode="k" horiz-adv-x="1202" d="M164 0v1454h276v-838l416 449h313l-399 -426l422 -639h-318l-280 451l-154 -164v-287h-276z" />
<glyph unicode="l" horiz-adv-x="690" d="M184 276v1178h277v-1153q0 -55 20.5 -74.5t59.5 -19.5q31 0 67 6l17 -203q-73 -22 -172 -22q-154 0 -211.5 71.5t-57.5 216.5z" />
<glyph unicode="m" horiz-adv-x="1970" d="M154 0v1065h270v-141q102 159 317 159q260 0 346 -188q105 188 351 188q192 0 290.5 -103t98.5 -304v-676h-277v651q0 215 -182 215q-76 0 -141.5 -35t-100.5 -94q2 -20 2 -61v-676h-276v651q0 215 -182 215q-74 0 -138.5 -34t-101.5 -91v-741h-276z" />
<glyph unicode="n" horiz-adv-x="1312" d="M154 0v1065h270v-154q107 174 346 174q198 0 298.5 -106t100.5 -313v-666h-276v641q0 227 -195 227q-83 0 -155.5 -38t-112.5 -101v-729h-276z" />
<glyph unicode="o" horiz-adv-x="1249" d="M61 532q0 244 157.5 398.5t406.5 154.5t406 -154t157 -399q0 -244 -157 -398t-406 -154t-406.5 154t-157.5 398zM342 532q0 -152 79 -247t204 -95t203.5 95t78.5 247t-78.5 247t-203.5 95t-204 -95t-79 -247z" />
<glyph unicode="p" horiz-adv-x="1296" d="M154 -389v1454h264v-78q113 98 293 98q232 0 373 -146.5t141 -387.5q0 -258 -146.5 -414.5t-386.5 -156.5q-148 0 -262 57v-426h-276zM430 244q90 -68 209 -68q139 0 224 102t85 269q0 158 -81 248t-224 90q-127 0 -213 -74v-567z" />
<glyph unicode="q" horiz-adv-x="1296" d="M72 520q0 252 148 408.5t386 156.5q169 0 273 -84v64h264v-1454h-277v428q-104 -59 -252 -59q-246 0 -394 147t-148 393zM348 518q0 -155 81.5 -246.5t219.5 -91.5q124 0 217 74v577q-83 54 -190 54q-149 0 -238.5 -100.5t-89.5 -266.5z" />
<glyph unicode="r" horiz-adv-x="872" d="M154 0v1065h270v-211q117 223 340 223q43 0 67 -8v-227h-47q-231 0 -354 -246v-596h-276z" />
<glyph unicode="s" horiz-adv-x="1048" d="M63 72l66 202q213 -90 360 -90q191 0 191 121q0 49 -42.5 72t-193.5 67q-70 20 -112.5 35.5t-91.5 41.5t-75.5 57t-44.5 78.5t-18 109.5q0 160 108.5 239.5t313.5 79.5q219 0 391 -73l-59 -197q-192 66 -319 66q-79 0 -121.5 -23t-42.5 -67q0 -28 17 -49t53 -36.5 t68.5 -25t87.5 -23.5t87 -24q128 -40 195 -112t67 -197q0 -166 -117 -255t-323 -89q-227 0 -445 92z" />
<glyph unicode="t" horiz-adv-x="856" d="M31 860v195h49q88 0 118.5 31t30.5 120v109h252v-250h279v-205h-279v-520q0 -75 28 -109t89 -34q74 0 160 41l57 -189q-110 -61 -280 -61q-180 0 -255 87t-75 298v487h-174z" />
<glyph unicode="u" horiz-adv-x="1308" d="M143 399v666h277v-641q0 -227 192 -227q81 0 153 36.5t114 96.5v735h276v-1065h-270v145q-110 -165 -344 -165q-197 0 -297.5 106t-100.5 313z" />
<glyph unicode="v" horiz-adv-x="1146" d="M20 1065h287l266 -758l267 758h286l-409 -1065h-287z" />
<glyph unicode="w" horiz-adv-x="1716" d="M41 1065h270l205 -801l217 801h250l217 -801l205 801h270l-303 -1065h-319l-195 743l-194 -743h-320z" />
<glyph unicode="x" horiz-adv-x="1148" d="M37 0l389 541l-377 524h305l221 -320l220 320h305l-377 -524l389 -541h-305l-232 338l-233 -338h-305z" />
<glyph unicode="y" horiz-adv-x="1161" d="M20 1065h287l277 -719l278 719h279l-447 -1114q-87 -216 -185.5 -296.5t-279.5 -80.5q-98 0 -198 25l32 204q85 -18 156 -18q82 0 127.5 34.5t81.5 127.5l29 76z" />
<glyph unicode="z" horiz-adv-x="1034" d="M82 0v143l487 717h-452v205h794v-160l-477 -700h518v-205h-870z" />
<glyph unicode="{" horiz-adv-x="770" d="M66 508v172q178 0 178 205v364q0 220 104.5 315t345.5 95h35v-168h-35q-92 0 -142 -53.5t-50 -151.5v-377q0 -119 -43.5 -194t-139.5 -121q96 -46 139.5 -121t43.5 -194v-379q0 -98 50 -151.5t142 -53.5h35v-168h-35q-241 0 -345.5 95t-104.5 315v366q0 205 -178 205z " />
<glyph unicode="|" horiz-adv-x="753" d="M256 -328v1864h242v-1864h-242z" />
<glyph unicode="}" horiz-adv-x="770" d="M41 -305h35q92 0 142 53.5t50 151.5v379q0 119 43.5 194t139.5 121q-96 46 -139.5 121t-43.5 194v377q0 98 -50 151.5t-142 53.5h-35v168h35q241 0 345.5 -95t104.5 -315v-364q0 -205 179 -205v-172q-179 0 -179 -205v-366q0 -220 -104.5 -315t-345.5 -95h-35v168z" />
<glyph unicode="~" horiz-adv-x="1060" d="M72 428q0 167 60 250.5t185 83.5q55 0 116 -18.5t104.5 -40t94 -40t87.5 -18.5q47 0 68.5 28.5t21.5 88.5h180q0 -168 -58.5 -249t-185.5 -81q-59 0 -119 18.5t-100.5 40t-88 40t-83.5 18.5q-102 0 -102 -121h-180z" />
<glyph unicode="&#xa1;" horiz-adv-x="712" d="M184 -385l62 942h221l61 -942h-344zM190 922q0 70 46.5 116.5t117.5 46.5t117.5 -46.5t46.5 -116.5t-47 -117t-117 -47t-117 47t-47 117z" />
<glyph unicode="&#xa2;" horiz-adv-x="1071" d="M61 551q0 234 132 380.5t360 168.5v182h143v-184q186 -19 314 -115l-107 -180q-104 73 -207 84v-674q110 12 215 86l107 -178q-127 -100 -322 -119v-195h-143v197q-226 23 -359 170t-133 377zM342 551q0 -127 56 -213.5t155 -114.5v658q-100 -26 -155.5 -112.5 t-55.5 -217.5z" />
<glyph unicode="&#xa3;" horiz-adv-x="1245" d="M92 2v188q137 44 205 104t68 165q0 100 -52 213h-221v209h137q-20 78 -20 166q0 203 140 315.5t386 112.5q193 0 391 -95l-92 -219q-140 80 -262 80q-116 0 -183 -58t-67 -153q0 -62 27 -149h373v-209h-295q18 -81 18 -156q0 -177 -117 -285h602v-229h-1038z" />
<glyph unicode="&#xa4;" horiz-adv-x="942" d="M117 330l82 73q-37 64 -37 148q0 83 37 147l-82 74l108 109l86 -78q67 37 160 37t160 -37l86 78l108 -109l-82 -74q37 -64 37 -147q0 -84 -37 -148l82 -73l-108 -109l-86 78q-67 -37 -160 -37t-160 37l-86 -78zM309 551q0 -75 45 -122.5t117 -47.5t117 47.5t45 122.5 t-45 122.5t-117 47.5t-117 -47.5t-45 -122.5z" />
<glyph unicode="&#xa5;" horiz-adv-x="1404" d="M72 1454h323l307 -534l308 534h323l-413 -657h335v-166h-411v-137h411v-166h-411v-328h-283v328h-411v166h411v137h-411v166h335z" />
<glyph unicode="&#xa6;" horiz-adv-x="753" d="M256 -328v738h242v-738h-242zM256 799v737h242v-737h-242z" />
<glyph unicode="&#xa7;" horiz-adv-x="1042" d="M57 682q0 171 181 244q-119 84 -119 237q0 151 107.5 231.5t301.5 80.5q208 0 383 -74l-59 -197q-192 66 -326 66q-137 0 -137 -84q0 -46 57 -77.5t203 -72.5q188 -54 262 -119.5t74 -175.5q0 -156 -154 -233q113 -86 113 -248q0 -166 -118 -254t-332 -88 q-110 0 -228.5 27.5t-206.5 64.5l66 203q213 -90 360 -90q191 0 191 113q0 58 -50 87t-186 60q-76 17 -125 31t-103 38.5t-84.5 53.5t-50.5 73.5t-20 102.5zM328 750q0 -57 59 -86.5t250 -77.5q80 24 80 94q0 56 -51.5 82.5t-225.5 75.5q-2 1 -6 2t-6 2q-100 -12 -100 -92z " />
<glyph unicode="&#xa8;" horiz-adv-x="1228" d="M252 1389q0 60 41 98.5t104 38.5t104.5 -38.5t41.5 -98.5t-41.5 -99t-104.5 -39t-104 39t-41 99zM686 1389q0 60 41 98.5t104 38.5t104.5 -38.5t41.5 -98.5t-41.5 -99t-104.5 -39t-104 39t-41 99z" />
<glyph unicode="&#xa9;" horiz-adv-x="1619" d="M61 727q0 214 96.5 385t268 267t385.5 96t385 -96t267 -267t96 -385t-96 -385t-267 -266.5t-385 -95.5t-385.5 95.5t-268 266.5t-96.5 385zM233 727q0 -256 163.5 -422t414.5 -166t413 166t162 422t-162 422t-413 166t-414.5 -166t-163.5 -422zM449 719 q0 172 104.5 275.5t282.5 103.5q155 0 264 -82l-72 -123q-88 59 -184 59q-94 0 -148.5 -62.5t-54.5 -170.5q0 -106 57 -170t152 -64q96 0 182 60l74 -121q-111 -84 -266 -84q-178 0 -284.5 103.5t-106.5 275.5z" />
<glyph unicode="&#xaa;" horiz-adv-x="825" d="M61 920q0 225 433 237v19q0 60 -27 88t-84 28q-96 0 -225 -69l-58 155q59 34 150 56t174 22q291 0 291 -256v-299q0 -23 9.5 -33t31.5 -10q19 0 35 4l14 -137q-58 -18 -105 -18q-122 0 -178 79q-85 -79 -217 -79q-112 0 -178 58t-66 155zM281 938q0 -72 84 -72 q71 0 129 39v129q-116 -9 -164.5 -31t-48.5 -65z" />
<glyph unicode="&#xab;" horiz-adv-x="1417" d="M164 545l348 368h270l-348 -368l348 -369h-270zM635 545l348 368h270l-348 -368l348 -369h-270z" />
<glyph unicode="&#xac;" horiz-adv-x="1187" d="M102 432v209h983v-483h-231v274h-752z" />
<glyph unicode="&#xad;" horiz-adv-x="966" d="M123 442v226h721v-226h-721z" />
<glyph unicode="&#xae;" horiz-adv-x="940" d="M123 1141q0 146 98 240t250 94q151 0 248.5 -94t97.5 -240t-97.5 -240t-248.5 -94q-152 0 -250 94t-98 240zM205 1141q0 -116 75.5 -191.5t190.5 -75.5t189.5 75.5t74.5 191.5t-74.5 191t-189.5 75t-190.5 -75.5t-75.5 -190.5zM354 979v326h125q55 0 85 -26t30 -73 q0 -33 -19.5 -57t-52.5 -31q6 -4 19 -20l22 -33q13 -22 21.5 -27.5t27.5 -5.5h9v-53h-15q-41 0 -63 10t-39 37l-39 61q-13 21 -31 21h-6v-129h-74zM428 1161h45q49 0 49 47q0 43 -49 43h-45v-90z" />
<glyph unicode="&#xaf;" horiz-adv-x="1232" d="M221 1313v188h791v-188h-791z" />
<glyph unicode="&#xb0;" horiz-adv-x="823" d="M82 1151q0 136 93.5 225.5t236.5 89.5t236 -89.5t93 -225.5t-93 -225.5t-236 -89.5t-236.5 89.5t-93.5 225.5zM238 1151q0 -75 49.5 -124.5t124.5 -49.5t124.5 49.5t49.5 124.5t-49.5 124.5t-124.5 49.5t-124.5 -49.5t-49.5 -124.5z" />
<glyph unicode="&#xb1;" horiz-adv-x="1310" d="M102 0v209h1106v-209h-1106zM104 633v209h431v317h247v-317h426v-209h-426v-318h-247v318h-431z" />
<glyph unicode="&#xb2;" horiz-adv-x="737" d="M88 1409q135 66 254 66q124 0 194 -59.5t70 -164.5q0 -61 -27 -116t-94 -131l-112 -125h252v-156h-533v115l201 221q65 71 84.5 102.5t19.5 65.5q0 40 -24.5 62t-67.5 22q-30 0 -59 -9.5t-94 -41.5z" />
<glyph unicode="&#xb3;" horiz-adv-x="708" d="M59 772l56 148q80 -39 143 -39q43 0 68.5 21t25.5 56q0 38 -29.5 56t-93.5 18h-45v123h43q119 0 119 80q0 37 -23.5 56.5t-66.5 19.5q-57 0 -137 -45l-58 145q112 64 246 64q121 0 191.5 -54.5t70.5 -148.5q0 -120 -112 -170q62 -17 97.5 -64t35.5 -114q0 -97 -77.5 -154 t-209.5 -57q-138 0 -244 59z" />
<glyph unicode="&#xb4;" horiz-adv-x="1228" d="M444 1239l226 328h350l-344 -328h-232z" />
<glyph unicode="&#xb5;" horiz-adv-x="1318" d="M154 -389v1454h276v-641q0 -227 193 -227q81 0 152.5 36t113.5 97v735h276v-1065h-270v143q-101 -163 -283 -163q-97 0 -182 43v-412h-276z" />
<glyph unicode="&#xb6;" horiz-adv-x="1228" d="M41 1034q0 187 122 303.5t333 116.5h569v-1659h-242v1473h-168v-1473h-241v821q-156 0 -264.5 119.5t-108.5 298.5z" />
<glyph unicode="&#xb7;" horiz-adv-x="622" d="M147 563q0 71 46.5 117.5t117.5 46.5t117.5 -46.5t46.5 -117.5t-46.5 -117.5t-117.5 -46.5t-117.5 46.5t-46.5 117.5z" />
<glyph unicode="&#xb8;" horiz-adv-x="1228" d="M399 -463l31 113q58 -15 111 -15q116 0 116 70q0 32 -20 50t-57 18q-56 0 -76 -27l-92 45l98 209h156l-66 -109q15 3 33 3q92 0 147.5 -50t55.5 -133q0 -98 -71.5 -150.5t-205.5 -52.5q-71 0 -160 29z" />
<glyph unicode="&#xb9;" horiz-adv-x="679" d="M41 1300l235 154h199v-731h-221v514l-125 -82z" />
<glyph unicode="&#xba;" horiz-adv-x="888" d="M61 1077q0 167 107 272t276 105t276 -105t107 -272q0 -166 -107 -270.5t-276 -104.5t-276 104.5t-107 270.5zM283 1077q0 -95 44 -152t117 -57q74 0 118 57t44 152q0 97 -44 154t-118 57t-117.5 -57t-43.5 -154z" />
<glyph unicode="&#xbb;" horiz-adv-x="1417" d="M164 176l348 369l-348 368h270l348 -368l-348 -369h-270zM635 176l348 369l-348 368h270l348 -368l-348 -369h-270z" />
<glyph unicode="&#xbc;" horiz-adv-x="1488" d="M41 1300l235 154h199v-731h-221v514l-125 -82zM248 0l839 1546h179l-840 -1546h-178zM807 127v119l305 493h231v-481h89v-131h-89v-127h-202v127h-334zM987 258h154v260z" />
<glyph unicode="&#xbd;" horiz-adv-x="1595" d="M41 1300l235 154h199v-731h-221v514l-125 -82zM248 0l839 1546h179l-840 -1546h-178zM946 686q135 66 254 66q124 0 194 -59.5t70 -164.5q0 -61 -27 -116t-94 -131l-112 -125h252v-156h-533v115l201 221q65 71 84.5 102.5t19.5 65.5q0 40 -24.5 62t-67.5 22 q-30 0 -59 -9.5t-94 -41.5z" />
<glyph unicode="&#xbe;" horiz-adv-x="1529" d="M59 772l56 148q80 -39 143 -39q43 0 68.5 21t25.5 56q0 38 -29.5 56t-93.5 18h-45v123h43q119 0 119 80q0 37 -23.5 56.5t-66.5 19.5q-57 0 -137 -45l-58 145q112 64 246 64q121 0 191.5 -54.5t70.5 -148.5q0 -120 -112 -170q62 -17 97.5 -64t35.5 -114q0 -97 -77.5 -154 t-209.5 -57q-138 0 -244 59zM289 0l839 1546h179l-840 -1546h-178zM848 127v119l305 493h231v-481h89v-131h-89v-127h-202v127h-334zM1028 258h154v260z" />
<glyph unicode="&#xbf;" horiz-adv-x="905" d="M70 -76q0 94 39.5 161.5t130.5 150.5q66 61 95 105t36.5 83.5t7.5 118.5v61h248v-61q0 -153 -31.5 -227.5t-140.5 -168.5q-61 -51 -90 -92t-29 -88q0 -67 47.5 -107t128.5 -40q120 0 272 80l82 -203q-196 -96 -385 -96q-206 0 -308.5 86.5t-102.5 236.5zM340 922 q0 70 46.5 116.5t117.5 46.5t117.5 -46.5t46.5 -116.5t-47 -117t-117 -47t-117 47t-47 117z" />
<glyph unicode="&#xc0;" horiz-adv-x="1519" d="M41 0l557 1454h324l557 -1454h-324l-102 283h-598l-103 -283h-311zM307 1956h350l226 -328h-232zM535 504h438l-219 612z" />
<glyph unicode="&#xc1;" horiz-adv-x="1519" d="M41 0l557 1454h324l557 -1454h-324l-102 283h-598l-103 -283h-311zM535 504h438l-219 612zM653 1628l226 328h350l-344 -328h-232z" />
<glyph unicode="&#xc2;" horiz-adv-x="1519" d="M41 0l557 1454h324l557 -1454h-324l-102 283h-598l-103 -283h-311zM369 1628l262 307h256l262 -307h-227l-162 156l-164 -156h-227zM535 504h438l-219 612z" />
<glyph unicode="&#xc3;" horiz-adv-x="1519" d="M41 0l557 1454h324l557 -1454h-324l-102 283h-598l-103 -283h-311zM377 1688q0 117 61.5 182t165.5 65q63 0 117 -21.5t96.5 -43t77.5 -21.5q40 0 63 23t23 61h160q0 -117 -62.5 -183.5t-171.5 -66.5q-51 0 -96 14t-71 30.5t-57.5 30.5t-59.5 14q-37 0 -60.5 -21.5 t-23.5 -62.5h-162zM535 504h438l-219 612z" />
<glyph unicode="&#xc4;" horiz-adv-x="1519" d="M41 0l557 1454h324l557 -1454h-324l-102 283h-598l-103 -283h-311zM395 1778q0 60 41.5 98.5t104.5 38.5t104 -38.5t41 -98.5t-41 -99t-104 -39t-104.5 39t-41.5 99zM535 504h438l-219 612zM829 1778q0 60 41.5 98.5t104.5 38.5t104 -38.5t41 -98.5t-41 -99t-104 -39 t-104.5 39t-41.5 99z" />
<glyph unicode="&#xc5;" horiz-adv-x="1519" d="M41 0l557 1454h324l557 -1454h-324l-102 283h-598l-103 -283h-311zM510 1829q0 101 70.5 167t177.5 66q106 0 177 -66.5t71 -166.5q0 -101 -70.5 -167.5t-177.5 -66.5t-177.5 66.5t-70.5 167.5zM535 504h438l-219 612zM659 1829q0 -44 28 -73.5t71 -29.5t70.5 29.5 t27.5 73.5t-27.5 73t-70.5 29t-71 -29t-28 -73z" />
<glyph unicode="&#xc6;" horiz-adv-x="2144" d="M20 0l1008 1454h993v-229h-673v-385h632v-226h-632v-385h694v-229h-998v283h-505l-187 -283h-332zM684 504h360v549z" />
<glyph unicode="&#xc7;" horiz-adv-x="1302" d="M82 727q0 347 197 547.5t540 200.5q137 0 261 -32t202 -89l-100 -211q-72 46 -163.5 72t-180.5 26q-209 0 -329 -137t-120 -375q0 -239 121 -377.5t330 -138.5q168 0 342 100l100 -209q-79 -57 -197.5 -89.5t-246.5 -34.5l-54 -89q15 3 33 3q92 0 147.5 -50t55.5 -133 q0 -98 -71.5 -150.5t-205.5 -52.5q-70 0 -159 29l30 113q58 -15 111 -15q117 0 117 70q0 32 -20.5 50t-57.5 18q-56 0 -76 -27l-92 45l92 197q-285 38 -445.5 233t-160.5 506z" />
<glyph unicode="&#xc8;" horiz-adv-x="1284" d="M184 0v1454h977v-229h-674v-385h633v-226h-633v-385h695v-229h-998zM211 1956h350l225 -328h-231z" />
<glyph unicode="&#xc9;" horiz-adv-x="1284" d="M184 0v1454h977v-229h-674v-385h633v-226h-633v-385h695v-229h-998zM557 1628l225 328h351l-345 -328h-231z" />
<glyph unicode="&#xca;" horiz-adv-x="1284" d="M184 0v1454h977v-229h-674v-385h633v-226h-633v-385h695v-229h-998zM272 1628l263 307h256l262 -307h-228l-161 156l-164 -156h-228z" />
<glyph unicode="&#xcb;" horiz-adv-x="1284" d="M184 0v1454h977v-229h-674v-385h633v-226h-633v-385h695v-229h-998zM299 1778q0 60 41 98.5t104 38.5t104.5 -38.5t41.5 -98.5t-41.5 -99t-104.5 -39t-104 39t-41 99zM733 1778q0 60 41.5 98.5t104.5 38.5t104 -38.5t41 -98.5t-41 -99t-104 -39t-104.5 39t-41.5 99z" />
<glyph unicode="&#xcc;" horiz-adv-x="712" d="M-96 1956h350l225 -328h-231zM205 0v1454h303v-1454h-303z" />
<glyph unicode="&#xcd;" horiz-adv-x="712" d="M205 0v1454h303v-1454h-303zM250 1628l225 328h350l-344 -328h-231z" />
<glyph unicode="&#xce;" horiz-adv-x="712" d="M-35 1628l262 307h256l262 -307h-227l-162 156l-163 -156h-228zM205 0v1454h303v-1454h-303z" />
<glyph unicode="&#xcf;" horiz-adv-x="712" d="M-8 1778q0 60 41 98.5t104 38.5t104.5 -38.5t41.5 -98.5t-41.5 -99t-104.5 -39t-104 39t-41 99zM205 0v1454h303v-1454h-303zM426 1778q0 60 41 98.5t104 38.5t104.5 -38.5t41.5 -98.5t-41.5 -99t-104.5 -39t-104 39t-41 99z" />
<glyph unicode="&#xd0;" horiz-adv-x="1581" d="M41 614v226h174v614h498q383 0 584.5 -186t201.5 -541t-201.5 -541t-584.5 -186h-498v614h-174zM514 229h199q234 0 356.5 127.5t122.5 370.5t-122.5 370.5t-356.5 127.5h-199v-385h350v-226h-350v-385z" />
<glyph unicode="&#xd1;" horiz-adv-x="1609" d="M184 0v1454h279l682 -962v962h280v-1454h-258l-702 997v-997h-281zM422 1688q0 117 61.5 182t165.5 65q63 0 117 -21.5t96.5 -43t77.5 -21.5q40 0 63 23t23 61h160q0 -117 -62.5 -183.5t-171.5 -66.5q-51 0 -96 14t-71 30.5t-57.5 30.5t-59.5 14q-37 0 -60.5 -21.5 t-23.5 -62.5h-162z" />
<glyph unicode="&#xd2;" horiz-adv-x="1654" d="M82 727q0 337 204.5 542.5t540.5 205.5q222 0 391.5 -93t262 -263t92.5 -392t-92.5 -392t-262 -262.5t-391.5 -92.5q-167 0 -306 54t-235.5 151t-150 236t-53.5 306zM375 1956h350l225 -328h-231zM389 727q0 -233 119.5 -373.5t318.5 -140.5t319 140.5t120 373.5 t-120 373.5t-319 140.5t-318.5 -140.5t-119.5 -373.5z" />
<glyph unicode="&#xd3;" horiz-adv-x="1654" d="M82 727q0 337 204.5 542.5t540.5 205.5q222 0 391.5 -93t262 -263t92.5 -392t-92.5 -392t-262 -262.5t-391.5 -92.5q-167 0 -306 54t-235.5 151t-150 236t-53.5 306zM389 727q0 -233 119.5 -373.5t318.5 -140.5t319 140.5t120 373.5t-120 373.5t-319 140.5t-318.5 -140.5 t-119.5 -373.5zM721 1628l225 328h350l-344 -328h-231z" />
<glyph unicode="&#xd4;" horiz-adv-x="1654" d="M82 727q0 337 204.5 542.5t540.5 205.5q222 0 391.5 -93t262 -263t92.5 -392t-92.5 -392t-262 -262.5t-391.5 -92.5q-167 0 -306 54t-235.5 151t-150 236t-53.5 306zM389 727q0 -233 119.5 -373.5t318.5 -140.5t319 140.5t120 373.5t-120 373.5t-319 140.5t-318.5 -140.5 t-119.5 -373.5zM436 1628l262 307h256l263 -307h-228l-162 156l-163 -156h-228z" />
<glyph unicode="&#xd5;" horiz-adv-x="1654" d="M82 727q0 337 204.5 542.5t540.5 205.5q222 0 391.5 -93t262 -263t92.5 -392t-92.5 -392t-262 -262.5t-391.5 -92.5q-167 0 -306 54t-235.5 151t-150 236t-53.5 306zM389 727q0 -233 119.5 -373.5t318.5 -140.5t319 140.5t120 373.5t-120 373.5t-319 140.5t-318.5 -140.5 t-119.5 -373.5zM444 1688q0 117 62 182t166 65q63 0 117 -21.5t96.5 -43t77.5 -21.5q40 0 63 23t23 61h159q0 -117 -62 -183.5t-171 -66.5q-65 0 -118 22.5t-93 44.5t-74 22q-37 0 -60.5 -21.5t-23.5 -62.5h-162z" />
<glyph unicode="&#xd6;" horiz-adv-x="1654" d="M82 727q0 337 204.5 542.5t540.5 205.5q222 0 391.5 -93t262 -263t92.5 -392t-92.5 -392t-262 -262.5t-391.5 -92.5q-167 0 -306 54t-235.5 151t-150 236t-53.5 306zM389 727q0 -233 119.5 -373.5t318.5 -140.5t319 140.5t120 373.5t-120 373.5t-319 140.5t-318.5 -140.5 t-119.5 -373.5zM463 1778q0 60 41 98.5t104 38.5t104.5 -38.5t41.5 -98.5t-41.5 -99t-104.5 -39t-104 39t-41 99zM897 1778q0 60 41 98.5t104 38.5t104.5 -38.5t41.5 -98.5t-41.5 -99t-104.5 -39t-104 39t-41 99z" />
<glyph unicode="&#xd7;" horiz-adv-x="1310" d="M193 244l290 291l-290 288l174 174l290 -288l289 288l174 -174l-289 -288l289 -291l-174 -174l-289 290l-290 -290z" />
<glyph unicode="&#xd8;" horiz-adv-x="1654" d="M82 727q0 337 204.5 542.5t540.5 205.5q239 0 418 -109l109 129l133 -111l-107 -127q193 -206 193 -530q0 -222 -92.5 -392t-262 -262.5t-391.5 -92.5q-244 0 -426 112l-129 -153l-133 110l129 154q-186 205 -186 524zM389 727q0 -169 68 -299l620 737q-109 76 -250 76 q-199 0 -318.5 -140.5t-119.5 -373.5zM571 295q108 -82 256 -82q199 0 319 140.5t120 373.5q0 178 -74 307z" />
<glyph unicode="&#xd9;" horiz-adv-x="1581" d="M174 549v905h303v-934q0 -143 83 -225t228 -82q146 0 231 82.5t85 224.5v934h303v-905q0 -264 -166 -416.5t-453 -152.5q-286 0 -450 152.5t-164 416.5zM338 1956h350l225 -328h-231z" />
<glyph unicode="&#xda;" horiz-adv-x="1581" d="M174 549v905h303v-934q0 -143 83 -225t228 -82q146 0 231 82.5t85 224.5v934h303v-905q0 -264 -166 -416.5t-453 -152.5q-286 0 -450 152.5t-164 416.5zM684 1628l225 328h351l-345 -328h-231z" />
<glyph unicode="&#xdb;" horiz-adv-x="1581" d="M174 549v905h303v-934q0 -143 83 -225t228 -82q146 0 231 82.5t85 224.5v934h303v-905q0 -264 -166 -416.5t-453 -152.5q-286 0 -450 152.5t-164 416.5zM399 1628l263 307h256l262 -307h-228l-161 156l-164 -156h-228z" />
<glyph unicode="&#xdc;" horiz-adv-x="1581" d="M174 549v905h303v-934q0 -143 83 -225t228 -82q146 0 231 82.5t85 224.5v934h303v-905q0 -264 -166 -416.5t-453 -152.5q-286 0 -450 152.5t-164 416.5zM426 1778q0 60 41 98.5t104 38.5t104.5 -38.5t41.5 -98.5t-41.5 -99t-104.5 -39t-104 39t-41 99zM860 1778 q0 60 41.5 98.5t104.5 38.5t104 -38.5t41 -98.5t-41 -99t-104 -39t-104.5 39t-41.5 99z" />
<glyph unicode="&#xdd;" horiz-adv-x="1404" d="M31 1454h323l348 -616l349 616h323l-524 -870v-584h-295v584zM596 1628l225 328h350l-344 -328h-231z" />
<glyph unicode="&#xde;" horiz-adv-x="1284" d="M184 0v1454h303v-221h209q257 0 402 -122t145 -339t-145 -339t-402 -122h-209v-311h-303zM487 541h209q129 0 201 61t72 170t-72 170.5t-201 61.5h-209v-463z" />
<glyph unicode="&#xdf;" horiz-adv-x="1423" d="M174 0v948q0 254 132.5 390.5t387.5 136.5q223 0 351.5 -100.5t128.5 -268.5q0 -84 -34.5 -140t-107.5 -106q-4 -3 -24.5 -17t-28.5 -20t-24.5 -20t-23.5 -25t-13.5 -27t-6.5 -32q0 -24 11.5 -40.5t36 -28t48.5 -19t62 -18.5t64 -21q101 -38 149.5 -108t48.5 -177 q0 -159 -101.5 -243t-287.5 -84q-102 0 -210 23.5t-189 59.5l67 199q185 -78 314 -78q70 0 103.5 29.5t33.5 79.5q0 22 -8 39.5t-17 28.5t-34.5 24.5t-39.5 20t-53 22.5q-144 61 -213 122t-69 159q0 40 11.5 74t33 60.5t42.5 44t50 36.5q3 2 19 12t19.5 12.5l17.5 12.5 t18.5 14.5t15.5 15t15 17.5t11 19t9.5 22.5t5 24t2.5 28.5q0 83 -56.5 125.5t-146.5 42.5q-119 0 -181 -75t-62 -216v-979h-277z" />
<glyph unicode="&#xe0;" horiz-adv-x="1171" d="M61 299q0 172 175.5 260.5t513.5 87.5v55q0 91 -47.5 131.5t-153.5 40.5q-156 0 -346 -100l-84 199q83 49 216.5 80.5t258.5 31.5q215 0 320.5 -93t105.5 -283v-439q0 -63 61 -63q37 0 52 6l18 -201q-76 -26 -139 -26q-196 0 -246 143q-62 -70 -152 -107.5t-196 -37.5 q-165 0 -261 84.5t-96 230.5zM133 1567h350l226 -328h-232zM338 309q0 -119 143 -119q75 0 146.5 28.5t122.5 78.5v174q-172 -8 -257.5 -24.5t-120 -47.5t-34.5 -90z" />
<glyph unicode="&#xe1;" horiz-adv-x="1171" d="M61 299q0 172 175.5 260.5t513.5 87.5v55q0 91 -47.5 131.5t-153.5 40.5q-156 0 -346 -100l-84 199q83 49 216.5 80.5t258.5 31.5q215 0 320.5 -93t105.5 -283v-439q0 -63 61 -63q37 0 52 6l18 -201q-76 -26 -139 -26q-196 0 -246 143q-62 -70 -152 -107.5t-196 -37.5 q-165 0 -261 84.5t-96 230.5zM338 309q0 -119 143 -119q75 0 146.5 28.5t122.5 78.5v174q-172 -8 -257.5 -24.5t-120 -47.5t-34.5 -90zM479 1239l226 328h350l-344 -328h-232z" />
<glyph unicode="&#xe2;" horiz-adv-x="1171" d="M61 299q0 172 175.5 260.5t513.5 87.5v55q0 91 -47.5 131.5t-153.5 40.5q-156 0 -346 -100l-84 199q83 49 216.5 80.5t258.5 31.5q215 0 320.5 -93t105.5 -283v-439q0 -63 61 -63q37 0 52 6l18 -201q-76 -26 -139 -26q-196 0 -246 143q-62 -70 -152 -107.5t-196 -37.5 q-165 0 -261 84.5t-96 230.5zM195 1239l262 307h256l262 -307h-227l-162 156l-164 -156h-227zM338 309q0 -119 143 -119q75 0 146.5 28.5t122.5 78.5v174q-172 -8 -257.5 -24.5t-120 -47.5t-34.5 -90z" />
<glyph unicode="&#xe3;" horiz-adv-x="1171" d="M61 299q0 172 175.5 260.5t513.5 87.5v55q0 91 -47.5 131.5t-153.5 40.5q-156 0 -346 -100l-84 199q83 49 216.5 80.5t258.5 31.5q215 0 320.5 -93t105.5 -283v-439q0 -63 61 -63q37 0 52 6l18 -201q-76 -26 -139 -26q-196 0 -246 143q-62 -70 -152 -107.5t-196 -37.5 q-165 0 -261 84.5t-96 230.5zM203 1298q0 117 61.5 182.5t165.5 65.5q63 0 117 -21.5t96.5 -43t77.5 -21.5q40 0 63 23t23 61h160q0 -117 -62.5 -183.5t-171.5 -66.5q-65 0 -117.5 22t-92.5 44t-74 22q-37 0 -60.5 -21.5t-23.5 -62.5h-162zM338 309q0 -119 143 -119 q75 0 146.5 28.5t122.5 78.5v174q-172 -8 -257.5 -24.5t-120 -47.5t-34.5 -90z" />
<glyph unicode="&#xe4;" horiz-adv-x="1171" d="M61 299q0 172 175.5 260.5t513.5 87.5v55q0 91 -47.5 131.5t-153.5 40.5q-156 0 -346 -100l-84 199q83 49 216.5 80.5t258.5 31.5q215 0 320.5 -93t105.5 -283v-439q0 -63 61 -63q37 0 52 6l18 -201q-76 -26 -139 -26q-196 0 -246 143q-62 -70 -152 -107.5t-196 -37.5 q-165 0 -261 84.5t-96 230.5zM221 1389q0 60 41.5 98.5t104.5 38.5t104 -38.5t41 -98.5t-41 -99t-104 -39t-104.5 39t-41.5 99zM338 309q0 -119 143 -119q75 0 146.5 28.5t122.5 78.5v174q-172 -8 -257.5 -24.5t-120 -47.5t-34.5 -90zM655 1389q0 60 41.5 98.5t104.5 38.5 t104 -38.5t41 -98.5t-41 -99t-104 -39t-104.5 39t-41.5 99z" />
<glyph unicode="&#xe5;" horiz-adv-x="1171" d="M61 299q0 172 175.5 260.5t513.5 87.5v55q0 91 -47.5 131.5t-153.5 40.5q-156 0 -346 -100l-84 199q83 49 216.5 80.5t258.5 31.5q215 0 320.5 -93t105.5 -283v-439q0 -63 61 -63q37 0 52 6l18 -201q-76 -26 -139 -26q-196 0 -246 143q-62 -70 -152 -107.5t-196 -37.5 q-165 0 -261 84.5t-96 230.5zM336 1440q0 101 70.5 167t177.5 66q106 0 176.5 -66.5t70.5 -166.5q0 -101 -70 -167.5t-177 -66.5t-177.5 66.5t-70.5 167.5zM338 309q0 -119 143 -119q75 0 146.5 28.5t122.5 78.5v174q-172 -8 -257.5 -24.5t-120 -47.5t-34.5 -90zM485 1440 q0 -44 28 -73.5t71 -29.5t70.5 29.5t27.5 73.5t-27.5 73t-70.5 29t-71 -29t-28 -73z" />
<glyph unicode="&#xe6;" horiz-adv-x="1861" d="M61 299q0 172 175 260.5t514 87.5v55q0 91 -47.5 131.5t-153.5 40.5q-156 0 -346 -100l-84 199q83 49 216.5 80.5t258.5 31.5q244 0 344 -124q140 124 360 124q235 0 370.5 -138.5t135.5 -379.5q0 -39 -6 -110h-774q15 -125 100.5 -198t218.5 -73q167 0 297 111l121 -174 q-169 -143 -430 -143q-281 0 -438 174q-89 -88 -204.5 -129t-270.5 -41q-165 0 -261 84.5t-96 230.5zM338 309q0 -119 143 -119q76 0 146.5 28.5t122.5 78.5v174q-172 -8 -257.5 -24.5t-120 -47.5t-34.5 -90zM1024 641h520q-2 111 -68.5 175.5t-181.5 64.5q-109 0 -180 -64 t-90 -176z" />
<glyph unicode="&#xe7;" horiz-adv-x="1071" d="M61 532q0 253 152.5 403t409.5 150q111 0 211.5 -30.5t175.5 -87.5l-107 -181q-127 88 -266 88q-137 0 -216 -92t-79 -250q0 -157 82.5 -249.5t220.5 -92.5t266 89l107 -179q-129 -105 -336 -118l-53 -91q15 3 33 3q92 0 147 -50t55 -133q0 -98 -71 -150.5t-205 -52.5 q-71 0 -160 29l31 113q59 -15 110 -15q117 0 117 70q0 32 -20.5 50t-57.5 18q-56 0 -76 -27l-92 45l92 195q-218 29 -344.5 174.5t-126.5 371.5z" />
<glyph unicode="&#xe8;" horiz-adv-x="1181" d="M61 532q0 249 152.5 401t404.5 152q235 0 370.5 -138.5t135.5 -379.5q0 -37 -6 -110h-774q15 -125 101 -198t219 -73q168 0 297 111l120 -174q-169 -143 -430 -143q-270 0 -430 149.5t-160 402.5zM158 1567h350l225 -328h-231zM344 641h520q-2 111 -68.5 175.5 t-181.5 64.5q-109 0 -180 -64t-90 -176z" />
<glyph unicode="&#xe9;" horiz-adv-x="1181" d="M61 532q0 249 152.5 401t404.5 152q235 0 370.5 -138.5t135.5 -379.5q0 -37 -6 -110h-774q15 -125 101 -198t219 -73q168 0 297 111l120 -174q-169 -143 -430 -143q-270 0 -430 149.5t-160 402.5zM344 641h520q-2 111 -68.5 175.5t-181.5 64.5q-109 0 -180 -64t-90 -176z M504 1239l225 328h350l-344 -328h-231z" />
<glyph unicode="&#xea;" horiz-adv-x="1181" d="M61 532q0 249 152.5 401t404.5 152q235 0 370.5 -138.5t135.5 -379.5q0 -37 -6 -110h-774q15 -125 101 -198t219 -73q168 0 297 111l120 -174q-169 -143 -430 -143q-270 0 -430 149.5t-160 402.5zM219 1239l262 307h256l262 -307h-227l-162 156l-164 -156h-227zM344 641 h520q-2 111 -68.5 175.5t-181.5 64.5q-109 0 -180 -64t-90 -176z" />
<glyph unicode="&#xeb;" horiz-adv-x="1181" d="M61 532q0 249 152.5 401t404.5 152q235 0 370.5 -138.5t135.5 -379.5q0 -37 -6 -110h-774q15 -125 101 -198t219 -73q168 0 297 111l120 -174q-169 -143 -430 -143q-270 0 -430 149.5t-160 402.5zM246 1389q0 60 41 98.5t104 38.5t104.5 -38.5t41.5 -98.5t-41.5 -99 t-104.5 -39t-104 39t-41 99zM344 641h520q-2 111 -68.5 175.5t-181.5 64.5q-109 0 -180 -64t-90 -176zM680 1389q0 60 41 98.5t104 38.5t104.5 -38.5t41.5 -98.5t-41.5 -99t-104.5 -39t-104 39t-41 99z" />
<glyph unicode="&#xec;" d="M-139 1567h350l225 -328h-231zM176 0v1065h277v-1065h-277z" />
<glyph unicode="&#xed;" d="M176 0v1065h277v-1065h-277zM207 1239l225 328h350l-344 -328h-231z" />
<glyph unicode="&#xee;" d="M-78 1239l262 307h256l262 -307h-227l-162 156l-163 -156h-228zM176 0v1065h277v-1065h-277z" />
<glyph unicode="&#xef;" d="M-51 1389q0 60 41 98.5t104 38.5t104.5 -38.5t41.5 -98.5t-41.5 -99t-104.5 -39t-104 39t-41 99zM176 0v1065h277v-1065h-277zM383 1389q0 60 41 98.5t104 38.5t104.5 -38.5t41.5 -98.5t-41.5 -99t-104.5 -39t-104 39t-41 99z" />
<glyph unicode="&#xf0;" horiz-adv-x="1249" d="M61 528q0 239 148 388t385 149q99 0 176 -25q-58 95 -100 152l-256 -68l-33 133l203 54q-59 75 -86 106l207 135q66 -80 135 -172l209 56l34 -133l-159 -43q264 -395 264 -715q0 -257 -153 -411t-408 -154q-252 0 -409 151t-157 397zM342 526q0 -150 78.5 -243t204.5 -93 t204 92.5t78 243.5q0 153 -79 250.5t-203 97.5t-203.5 -98t-79.5 -250z" />
<glyph unicode="&#xf1;" horiz-adv-x="1312" d="M154 0v1065h270v-154q107 174 346 174q198 0 298.5 -106t100.5 -313v-666h-276v641q0 227 -195 227q-83 0 -155.5 -38t-112.5 -101v-729h-276zM274 1298q0 117 62 182.5t166 65.5q63 0 117 -21.5t96.5 -43t77.5 -21.5q40 0 63 23t23 61h159q0 -117 -62 -183.5t-171 -66.5 q-51 0 -96 14t-71.5 30t-58 30t-59.5 14q-37 0 -60.5 -21.5t-23.5 -62.5h-162z" />
<glyph unicode="&#xf2;" horiz-adv-x="1249" d="M61 532q0 244 157.5 398.5t406.5 154.5t406 -154t157 -399q0 -244 -157 -398t-406 -154t-406.5 154t-157.5 398zM172 1567h350l226 -328h-232zM342 532q0 -152 79 -247t204 -95t203.5 95t78.5 247t-78.5 247t-203.5 95t-204 -95t-79 -247z" />
<glyph unicode="&#xf3;" horiz-adv-x="1249" d="M61 532q0 244 157.5 398.5t406.5 154.5t406 -154t157 -399q0 -244 -157 -398t-406 -154t-406.5 154t-157.5 398zM342 532q0 -152 79 -247t204 -95t203.5 95t78.5 247t-78.5 247t-203.5 95t-204 -95t-79 -247zM518 1239l225 328h351l-344 -328h-232z" />
<glyph unicode="&#xf4;" horiz-adv-x="1249" d="M61 532q0 244 157.5 398.5t406.5 154.5t406 -154t157 -399q0 -244 -157 -398t-406 -154t-406.5 154t-157.5 398zM233 1239l263 307h256l262 -307h-228l-161 156l-164 -156h-228zM342 532q0 -152 79 -247t204 -95t203.5 95t78.5 247t-78.5 247t-203.5 95t-204 -95 t-79 -247z" />
<glyph unicode="&#xf5;" horiz-adv-x="1249" d="M61 532q0 244 157.5 398.5t406.5 154.5t406 -154t157 -399q0 -244 -157 -398t-406 -154t-406.5 154t-157.5 398zM242 1298q0 117 61.5 182.5t165.5 65.5q63 0 117 -21.5t96.5 -43t77.5 -21.5q40 0 63 23t23 61h160q0 -117 -62.5 -183.5t-171.5 -66.5q-51 0 -96 14 t-71.5 30t-58 30t-59.5 14q-37 0 -60.5 -21.5t-23.5 -62.5h-161zM342 532q0 -152 79 -247t204 -95t203.5 95t78.5 247t-78.5 247t-203.5 95t-204 -95t-79 -247z" />
<glyph unicode="&#xf6;" horiz-adv-x="1249" d="M61 532q0 244 157.5 398.5t406.5 154.5t406 -154t157 -399q0 -244 -157 -398t-406 -154t-406.5 154t-157.5 398zM260 1389q0 60 41.5 98.5t104.5 38.5t104 -38.5t41 -98.5t-41 -99t-104 -39t-104.5 39t-41.5 99zM342 532q0 -152 79 -247t204 -95t203.5 95t78.5 247 t-78.5 247t-203.5 95t-204 -95t-79 -247zM694 1389q0 60 41.5 98.5t104.5 38.5t104 -38.5t41 -98.5t-41 -99t-104 -39t-104.5 39t-41.5 99z" />
<glyph unicode="&#xf7;" horiz-adv-x="1310" d="M102 430v209h1106v-209h-1106zM502 141q0 66 43.5 110t109.5 44t110 -44t44 -110t-44 -109.5t-110 -43.5t-109.5 43.5t-43.5 109.5zM502 928q0 66 43.5 109.5t109.5 43.5t110 -43.5t44 -109.5t-44 -110t-110 -44t-109.5 44t-43.5 110z" />
<glyph unicode="&#xf8;" horiz-adv-x="1249" d="M61 532q0 244 157.5 398.5t406.5 154.5q167 0 297 -73l120 145l97 -90l-111 -133q76 -73 118 -177t42 -225q0 -244 -157 -398t-406 -154q-185 0 -324 90l-111 -131l-100 84l111 131q-140 153 -140 378zM342 532q0 -89 33 -170l395 469q-61 43 -145 43q-125 0 -204 -95 t-79 -247zM455 252q72 -62 170 -62q125 0 203.5 95t78.5 247q0 121 -49 203z" />
<glyph unicode="&#xf9;" horiz-adv-x="1308" d="M143 399v666h277v-641q0 -227 192 -227q81 0 153 36.5t114 96.5v735h276v-1065h-270v145q-110 -165 -344 -165q-197 0 -297.5 106t-100.5 313zM203 1567h350l225 -328h-231z" />
<glyph unicode="&#xfa;" horiz-adv-x="1308" d="M143 399v666h277v-641q0 -227 192 -227q81 0 153 36.5t114 96.5v735h276v-1065h-270v145q-110 -165 -344 -165q-197 0 -297.5 106t-100.5 313zM549 1239l225 328h350l-344 -328h-231z" />
<glyph unicode="&#xfb;" horiz-adv-x="1308" d="M143 399v666h277v-641q0 -227 192 -227q81 0 153 36.5t114 96.5v735h276v-1065h-270v145q-110 -165 -344 -165q-197 0 -297.5 106t-100.5 313zM264 1239l262 307h256l262 -307h-227l-162 156l-163 -156h-228z" />
<glyph unicode="&#xfc;" horiz-adv-x="1308" d="M143 399v666h277v-641q0 -227 192 -227q81 0 153 36.5t114 96.5v735h276v-1065h-270v145q-110 -165 -344 -165q-197 0 -297.5 106t-100.5 313zM291 1389q0 60 41 98.5t104 38.5t104.5 -38.5t41.5 -98.5t-41.5 -99t-104.5 -39t-104 39t-41 99zM725 1389q0 60 41 98.5 t104 38.5t104.5 -38.5t41.5 -98.5t-41.5 -99t-104.5 -39t-104 39t-41 99z" />
<glyph unicode="&#xfd;" horiz-adv-x="1161" d="M20 1065h287l277 -719l278 719h279l-447 -1114q-87 -216 -185.5 -296.5t-279.5 -80.5q-98 0 -198 25l32 204q85 -18 156 -18q82 0 127.5 34.5t81.5 127.5l29 76zM492 1239l225 328h350l-344 -328h-231z" />
<glyph unicode="&#xfe;" horiz-adv-x="1296" d="M154 -389v1843h276v-457q110 88 281 88q232 0 373 -146.5t141 -387.5q0 -258 -146.5 -414.5t-386.5 -156.5q-148 0 -262 57v-426h-276zM430 244q90 -68 209 -68q139 0 224 102t85 269q0 158 -81 248t-224 90q-127 0 -213 -74v-567z" />
<glyph unicode="&#xff;" horiz-adv-x="1161" d="M20 1065h287l277 -719l278 719h279l-447 -1114q-87 -216 -185.5 -296.5t-279.5 -80.5q-98 0 -198 25l32 204q85 -18 156 -18q82 0 127.5 34.5t81.5 127.5l29 76zM233 1389q0 60 41.5 98.5t104.5 38.5t104 -38.5t41 -98.5t-41 -99t-104 -39t-104.5 39t-41.5 99zM668 1389 q0 60 41 98.5t104 38.5t104 -38.5t41 -98.5t-41 -99t-104 -39t-104 39t-41 99z" />
<glyph unicode="&#x152;" horiz-adv-x="2119" d="M82 727q0 355 201.5 541t584.5 186h1129v-229h-674v-385h633v-226h-633v-385h694v-229h-1149q-383 0 -584.5 186t-201.5 541zM389 727q0 -243 122.5 -370.5t356.5 -127.5h152v996h-152q-234 0 -356.5 -127.5t-122.5 -370.5z" />
<glyph unicode="&#x153;" horiz-adv-x="2002" d="M61 532q0 252 145 402.5t388 150.5q139 0 252 -57.5t184 -161.5q65 105 173.5 162t248.5 57q226 0 360 -141t134 -377q0 -24 -7 -110h-774q15 -125 101 -198t219 -73q167 0 297 111l121 -174q-169 -143 -420 -143q-153 0 -269 57t-184 164q-70 -104 -183.5 -162.5 t-252.5 -58.5q-243 0 -388 150t-145 402zM342 532q0 -152 79 -247t204 -95t203.5 95t78.5 247t-78.5 247t-203.5 95t-204 -95t-79 -247zM1165 641h521q-2 111 -68.5 175.5t-181.5 64.5q-109 0 -180.5 -64.5t-90.5 -175.5z" />
<glyph unicode="&#x178;" horiz-adv-x="1404" d="M31 1454h323l348 -616l349 616h323l-524 -870v-584h-295v584zM338 1778q0 60 41 98.5t104 38.5t104.5 -38.5t41.5 -98.5t-41.5 -99t-104.5 -39t-104 39t-41 99zM772 1778q0 60 41.5 98.5t104.5 38.5t104 -38.5t41 -98.5t-41 -99t-104 -39t-104.5 39t-41.5 99z" />
<glyph unicode="&#x2c6;" horiz-adv-x="1230" d="M225 1239l262 307h256l263 -307h-228l-162 156l-163 -156h-228z" />
<glyph unicode="&#x2dc;" horiz-adv-x="1228" d="M225 1298q0 117 62 182.5t166 65.5q63 0 116.5 -21.5t96 -43t77.5 -21.5q40 0 63 23t23 61h160q0 -117 -62 -183.5t-171 -66.5q-51 0 -96 14t-71.5 30t-58 30t-59.5 14q-37 0 -60.5 -21.5t-23.5 -62.5h-162z" />
<glyph unicode="&#x2000;" horiz-adv-x="1031" />
<glyph unicode="&#x2001;" horiz-adv-x="2062" />
<glyph unicode="&#x2002;" horiz-adv-x="1031" />
<glyph unicode="&#x2003;" horiz-adv-x="2062" />
<glyph unicode="&#x2004;" horiz-adv-x="687" />
<glyph unicode="&#x2005;" horiz-adv-x="515" />
<glyph unicode="&#x2006;" horiz-adv-x="343" />
<glyph unicode="&#x2007;" horiz-adv-x="343" />
<glyph unicode="&#x2008;" horiz-adv-x="257" />
<glyph unicode="&#x2009;" horiz-adv-x="412" />
<glyph unicode="&#x200a;" horiz-adv-x="114" />
<glyph unicode="&#x2010;" horiz-adv-x="966" d="M123 442v226h721v-226h-721z" />
<glyph unicode="&#x2011;" horiz-adv-x="966" d="M123 442v226h721v-226h-721z" />
<glyph unicode="&#x2012;" horiz-adv-x="966" d="M123 442v226h721v-226h-721z" />
<glyph unicode="&#x2013;" horiz-adv-x="1191" d="M123 442v226h946v-226h-946z" />
<glyph unicode="&#x2014;" horiz-adv-x="1703" d="M123 442v226h1458v-226h-1458z" />
<glyph unicode="&#x2018;" horiz-adv-x="624" d="M106 805l283 649h180l-180 -649h-283z" />
<glyph unicode="&#x2019;" horiz-adv-x="624" d="M55 805l181 649h282l-282 -649h-181z" />
<glyph unicode="&#x201a;" horiz-adv-x="624" d="M55 -367l181 650h282l-282 -650h-181z" />
<glyph unicode="&#x201c;" horiz-adv-x="1044" d="M106 805l283 649h180l-180 -649h-283zM526 805l283 649h180l-180 -649h-283z" />
<glyph unicode="&#x201d;" horiz-adv-x="1044" d="M55 805l181 649h282l-282 -649h-181zM475 805l180 649h283l-283 -649h-180z" />
<glyph unicode="&#x201e;" horiz-adv-x="1044" d="M55 -367l181 650h282l-282 -650h-181zM475 -367l180 650h283l-283 -650h-180z" />
<glyph unicode="&#x2022;" horiz-adv-x="819" d="M164 563q0 106 70 176t176 70t175.5 -70t69.5 -176t-69.5 -176t-175.5 -70t-176 70t-70 176z" />
<glyph unicode="&#x2026;" horiz-adv-x="1609" d="M150 154q0 70 46 116.5t117 46.5t117.5 -46.5t46.5 -116.5t-46.5 -117t-117.5 -47q-70 0 -116.5 46.5t-46.5 117.5zM641 154q0 70 46.5 116.5t117.5 46.5t117.5 -46.5t46.5 -116.5t-46.5 -117t-117.5 -47t-117.5 47t-46.5 117zM1133 154q0 70 46.5 116.5t116.5 46.5 q71 0 117.5 -46.5t46.5 -116.5t-47 -117t-117 -47t-116.5 46.5t-46.5 117.5z" />
<glyph unicode="&#x202f;" horiz-adv-x="412" />
<glyph unicode="&#x2039;" horiz-adv-x="946" d="M164 545l348 368h270l-348 -368l348 -369h-270z" />
<glyph unicode="&#x203a;" horiz-adv-x="946" d="M164 176l348 369l-348 368h270l348 -368l-348 -369h-270z" />
<glyph unicode="&#x205f;" horiz-adv-x="515" />
<glyph unicode="&#x20ac;" horiz-adv-x="1323" d="M41 512v166h166q-2 18 -2 53q0 44 2 64h-166v166h188q56 234 223.5 363.5t421.5 129.5q123 0 233 -29.5t185 -83.5l-100 -211q-60 42 -141 66.5t-158 24.5q-127 0 -217 -67.5t-131 -192.5h602v-166h-633q-2 -20 -2 -62q0 -37 2 -55h633v-166h-604q42 -133 135.5 -206 t226.5 -73q145 0 297 93l101 -209q-77 -56 -185.5 -86.5t-232.5 -30.5q-260 0 -432 134.5t-226 377.5h-186z" />
<glyph unicode="&#x2122;" horiz-adv-x="1337" d="M41 1331v123h524v-123h-182v-459h-162v459h-180zM655 872v582h154l147 -262l146 262h153v-582h-157v316l-103 -191h-82l-100 189v-314h-158z" />
<glyph unicode="&#x25fc;" horiz-adv-x="1064" d="M0 0v1065h1065v-1065h-1065z" />
</font>
</defs>
</svg>
